Создать аккаунт
Войти





26.8 MB

Twitter Facebook Google Livejournal Pinterest

Скачать оригинальную версию фильм комсомольск


Описание: Скачать оригинальную версию фильм комсомольск
Имя файла: originalnuyu-versiyu-film-komsomolsk

Комсомольск

Название:

Комсомольск

Комсомольск [Фильмы 1938] скачать торрентом/torrent бесплатно

Год выхода:

Категории:

Добавлен:

05-04-2015 в 13:34:21

Отзывов:

0

  • Orbitum

    Новый интернет-браузер Блокирует всю рекламу на сайтах Быстрее загружает сайты Экономит Ваш интернет трафик

  • Оформи страницу Вконтакте

    Благодаря Orbitum, ты сможешь сделать свою страницу ВКонтакте такой, какой ты хочешь ее видеть
  • Смотри-качай торренты прямо в браузере Orbitum умеет загружать файлы как торрент клиент, а видео смотреть онлайн! Список загрузок > Плеер Orbitum >
  • Общайся с друзьями без ограничений Используй удобный чат, чтобы общаться со всеми друзьями из ВКонтакте и Одноклассники одновременно.
  • Слушай любимую музыку С помощью Orbitum ты можешь слушать свои аудиозаписи, не заходя во ВКонтакте, а прямо из браузера! Более того, переключай песни, слушай аудиозаписи друзей, находясь на любом сайте. Удобный аудиоплеер (боковая панель с музыкой) будет всегда у тебя под рукой.
  • Возьми Orbitum с собой Установи мобильную версию Orbitum, синхронизируй закладки, историю посещенных страниц и оцени интернет без рекламы со встроенным AdBlock!

    Поддерживаются платформы

  • Пора пробовать!

    Orbitum откроет новые возможности интернета

    Скачать
Еще никто не оставил оценку — будь первым! Как качать?

Раздают: 3 Качают: 2 Скачали: 11 Размер: 745.04 MB

Страна: СССР
Производство: Ленфильм
Жанр:  драма
Год выпуска: 1938
Продолжительность: 01:39:17
Перевод: Не требуется
Cубтитры: нет
Оригинальная аудиодорожка: русский
Режиссер: Сергей Герасимов
В ролях:
Тамара Макарова, Иван Новосельцев, Николай Крючков, Павел Волков, Степан Крылов, Иван Кузнецов, Петр Алейников, Валентина Телегина, Георгий Жженов, Виктор Кулаков...
Описание:
В 1932 году тысячи комсомольцев отправляются на Дальний Восток для строительства «города юности» — Комсомольска-на-Амуре. Среди строителей — диверсант. Вскоре на новых заводах Комсомольска взрываются склады с горючим…
Источник: DVD5 R5
Качество видео: DVDRip
Формат видео: AVI
Видео: 576x432 (4:3), 25 fps, XviD 911 kbps avg, 0.147 bit/pixel
Аудио: 48 kHz, MP3 2.0, 128 kbps
Раздача от:  

MediaInfo


Общее
Полное имя                               : Komsomolsk.1938.DVDRip-745_[New-team]_by_AVP_Studio.avi
Формат                                   : AVI
Формат/Информация                        : Audio Video Interleave
Размер файла                             : 745 Мбайт
Продолжительность                        : 1 ч. 39 м.
Общий поток                              : 1049 Кбит/сек
Программа кодирования                    : VirtualDubModRus 1.5.10.2 (build 2542/release)
Библиотека кодирования                   : VirtualDubMod build 2542/release
Видео
Идентификатор                            : 0
Формат                                   : MPEG-4 Visual
Профиль формата                          : Advanced Simple@L5
Параметр BVOP формата                    : 1
Параметр QPel формата                    : Нет
Параметр GMC формата                     : Без точки перехода
Параметр матрицы формата                 : Выборочная
Идентификатор кодека                     : XVID
Идентификатор кодека/Подсказка           : XviD
Продолжительность                        : 1 ч. 39 м.
Битрейт                                  : 911 Кбит/сек
Ширина                                   : 576 пикселей
Высота                                   : 432 пикселя
Соотношение сторон                       : 4:3
Частота кадров                           : 25,000 кадров/сек
Цветовое пространство                    : YUV
Субдискретизация насыщенности            : 4:2:0
Битовая глубина                          : 8 бит
Тип развёртки                            : Прогрессивная
Метод сжатия                             : С потерями
Бит/(ПикселиКадры)                      : 0.147
Размер потока                            : 647 Мбайт (87%)
Библиотека кодирования                   : XviD 73
Аудио
Идентификатор                            : 1
Формат                                   : MPEG Audio
Версия формата                           : Version 1
Профиль формата                          : Layer 3
Идентификатор кодека                     : 55
Идентификатор кодека/Подсказка           : MP3
Продолжительность                        : 1 ч. 39 м.
Вид битрейта                             : Постоянный
Битрейт                                  : 128 Кбит/сек
Каналы                                   : 2 канала
Частота                                  : 48,0 КГц
Метод сжатия                             : С потерями
Размер потока                            : 90,9 Мбайт (12%)
Выравнивание                             : Соединение по промежуткам
Продолжительность промежутка             : 40  мс. (1,00 видеокадр)
Время предзагрузки промежутка            : 504  мс.
Библиотека кодирования                   : LAME3.99r
Настройки программы                      : -m s -V 4 -q 2 -lowpass 17 -b 128


Скриншоты


[img]http://s50.radikal.ru/i130/1504/a1/083e9de7a015.png[/img]
  [img]http://s58.radikal.ru/i162/1504/69/3080ef7d0d30.png[/img]
  [img]http://s019.radikal.ru/i638/1504/b3/04945414c0ea.png[/img]
  


Как скачать?
1. Качаем UTorrent версии 2.0 и выше отсюда
2. После установки, жмем на ссылку Скачать торрент.
3. Открываем его через utorrent.
4. Ждем пока подключатся участники.
5. Качаем.


Cсылка для сайта (HTML):

Cсылка для форума (BBCode):